<?xml version="1.0" standalone="no"?>
<!DOCTYPE svg PUBLIC "-//W3C//DTD SVG 1.1//EN" "http://www.w3.org/Graphics/SVG/1.1/DTD/svg11.dtd" >
<svg xmlns="http://www.w3.org/2000/svg">
<metadata></metadata>
<defs>
<font id="poppinsbold" horiz-adv-x="1429" >
<font-face units-per-em="2048" ascent="1638" descent="-410" />
<missing-glyph horiz-adv-x="614" />
<glyph unicode="&#xfb01;" horiz-adv-x="1345" d="M51 852v291h107v43q0 217 115.5 317.5t363.5 100.5v-297q-70 0 -99.5 -26.5t-29.5 -94.5v-43h684v-1143h-350v852h-334v-852h-350v852h-107zM811 1418q0 87 59.5 146.5t145.5 59.5t145.5 -59.5t59.5 -146.5t-59.5 -146.5t-145.5 -59.5t-145.5 59.5t-59.5 146.5z" />
<glyph unicode="&#xfb02;" horiz-adv-x="1345" d="M51 852v291h107v43q0 217 115.5 317.5t363.5 100.5v-297q-70 0 -99.5 -26.5t-29.5 -94.5v-43h145v-291h-145v-852h-350v852h-107zM842 0v1516h350v-1516h-350z" />
<glyph horiz-adv-x="0" />
<glyph horiz-adv-x="0" />
<glyph unicode="&#xd;" horiz-adv-x="614" />
<glyph unicode=" "  horiz-adv-x="614" />
<glyph unicode="&#x09;" horiz-adv-x="614" />
<glyph unicode="&#xa0;" horiz-adv-x="614" />
<glyph unicode="!" horiz-adv-x="870" d="M264 1540h379l-41 -1024h-297zM270 191.5q0 80.5 55.5 136t136.5 55.5t136 -55.5t55 -136t-55 -136t-136 -55.5t-136.5 55.5t-55.5 136z" />
<glyph unicode="&#x22;" horiz-adv-x="841" d="M82 1638h289l-27 -452h-235zM471 1638h289l-27 -452h-235z" />
<glyph unicode="#" horiz-adv-x="1902" d="M31 291v315h375l67 314h-309v315h377l59 281h328l-60 -281h340l60 281h327l-59 -281h240v-315h-308l-67 -314h241v-315h-309l-61 -291h-328l62 291h-340l-62 -291h-328l62 291h-307zM733 606h340l68 314h-340z" />
<glyph unicode="$" horiz-adv-x="1316" d="M123 434h373q12 -137 114 -164v322q-94 23 -181 53.5t-109.5 45t-60.5 39t-57.5 51t-41.5 61.5q-37 61 -37 174q0 186 139 304t348 136v166h121v-166q215 -12 340 -117.5t131 -318.5h-360q-12 113 -111 151v-323q205 -57 268 -88q203 -103 203 -332q0 -170 -131 -296 t-340 -144v-166h-121v166q-225 14 -356 129.5t-131 316.5zM491.5 1046.5q0.5 -106.5 118.5 -157.5v287q-119 -23 -118.5 -129.5zM731 270q102 29 102.5 127.5t-102.5 149.5v-277z" />
<glyph unicode="%" horiz-adv-x="1667" d="M61 1118q0 164 95.5 254t247 90t245.5 -90t94 -254t-94 -254t-245.5 -90t-247 90t-95.5 254zM270 0l789 1442h338l-789 -1442h-338zM303 1118q0 -137 99.5 -137t99.5 137t-99.5 137t-99.5 -137zM924 323.5q0 163.5 95 254t246.5 90.5t246 -90.5t94.5 -254t-94.5 -253.5 t-246 -90t-246.5 90t-95 253.5zM1165 323.5q0 -137.5 99.5 -137.5t99.5 137.5t-99.5 137.5t-99.5 -137.5z" />
<glyph unicode="&#x26;" horiz-adv-x="1433" d="M61 434q0 178 93.5 301t230.5 154q-96 147 -96 254q0 154 111.5 263.5t308 109.5t310.5 -100.5t114 -235.5q0 -74 -29 -131h-332q23 35 23 76.5t-23.5 66.5t-60.5 25t-60.5 -25t-23.5 -65t41 -95l766 -1032h-404l-127 182q-61 -88 -161.5 -142t-215.5 -54 q-195 0 -330 135t-135 313zM352 451.5q0 -72.5 51.5 -125t124 -52.5t125 52.5t52.5 125t-52.5 124t-125 51.5t-124 -51.5t-51.5 -124z" />
<glyph unicode="'" horiz-adv-x="452" d="M82 1638h289l-27 -452h-235z" />
<glyph unicode="(" horiz-adv-x="983" d="M137 824q0 384 153.5 700.5t403.5 505.5h346v-33q-565 -463 -565 -1173.5t565 -1173.5v-33h-346q-250 190 -403.5 506.5t-153.5 700.5z" />
<glyph unicode=")" horiz-adv-x="987" d="M-53 -350q565 463 565 1173.5t-565 1173.5v33h346q250 -189 403.5 -505.5t153.5 -700.5t-153.5 -700.5t-403.5 -506.5h-346v33z" />
<glyph unicode="*" horiz-adv-x="1093" d="M152 1042l251 88l-249 82l116 211l213 -178l-53 271h244l-53 -271l213 178l114 -209l-252 -88l252 -86l-123 -217l-204 181l51 -267h-240l49 267l-202 -183z" />
<glyph unicode="+" horiz-adv-x="1331" d="M143 557v317h355v365h336v-365h354v-317h-354v-362h-336v362h-355z" />
<glyph unicode="," horiz-adv-x="493" d="M61 -96v313h289q90 -207 47 -389q-23 -90 -97.5 -147.5t-195.5 -57.5v133q55 0 81 24.5t26 90.5v33h-150z" />
<glyph unicode="-" horiz-adv-x="1187" d="M143 573v291h901v-291h-901z" />
<glyph unicode="." horiz-adv-x="526" d="M72 191.5q0 80.5 55 136t136 55.5t136.5 -55.5t55.5 -136t-55.5 -136t-136.5 -55.5t-136 55.5t-55 136z" />
<glyph unicode="/" horiz-adv-x="927" d="M20 -383l549 2329h338l-549 -2329h-338z" />
<glyph unicode="0" horiz-adv-x="1335" d="M92 745.5q0 163.5 31 293.5t96.5 232.5t179 158t269 55.5t269.5 -55.5t179.5 -158t96 -232.5t30.5 -293.5t-30.5 -293.5t-96 -232.5t-179.5 -158t-269.5 -55.5t-269 55.5t-179 158t-96.5 232.5t-31 293.5zM436 745.5q0 -73.5 4 -127t18.5 -110.5t38 -92t67.5 -58.5 t103.5 -23.5t103.5 23.5t67.5 58.5t38 92t18.5 110.5t4 127t-4 127t-18.5 110.5t-38 92t-67.5 58.5t-103.5 23.5t-103.5 -23.5t-67.5 -58.5t-38 -92t-18.5 -110.5t-4 -127z" />
<glyph unicode="1" horiz-adv-x="862" d="M57 1128v326h611v-1454h-363v1128h-248z" />
<glyph unicode="2" horiz-adv-x="1169" d="M76 997q0 246 142 372t373.5 126t360.5 -132t129 -319q0 -141 -61 -247q-37 -61 -63.5 -104.5t-88 -107t-90 -92t-105.5 -98t-98 -90.5h533v-285h-1028v261q55 49 155.5 135t155.5 134t129 120.5t111 124.5q96 133 96 231q0 174 -154 174q-74 0 -116.5 -52t-42.5 -151 h-338z" />
<glyph unicode="3" horiz-adv-x="1239" d="M86 473h340q2 -90 51 -142t136 -52t131 47t44 134t-61 130t-201 43h-65v285h65q233 0 234 163q0 66 -42 105t-112 39q-141 0 -155 -152h-340q0 215 138 333t367.5 118t356.5 -113t127 -287q0 -137 -66.5 -223t-136.5 -115v-8q229 -88 229 -354q0 -201 -134 -316.5 t-370.5 -115.5t-386 120.5t-149.5 360.5z" />
<glyph unicode="4" horiz-adv-x="1386" d="M100 266v283l648 926h391v-906h168v-303h-168v-266h-351v266h-688zM489 569h324v508z" />
<glyph unicode="5" horiz-adv-x="1331" d="M154 422h346q10 -59 63 -97t143.5 -38t138.5 60.5t48 160.5t-50 155.5t-134 55.5t-128 -36t-55 -89h-338v903h934v-307h-616v-262q92 82 234.5 82t240.5 -46t149 -122q100 -150 101 -322q0 -240 -141.5 -380t-387 -140t-388 118t-160.5 304z" />
<glyph unicode="6" horiz-adv-x="1304" d="M121 758q0 772 545 772q225 0 347 -122t144 -304h-326q-29 139 -172 139q-225 0 -227 -385q49 63 135 94t172 31q205 0 331 -127t126 -356.5t-135 -364.5t-367 -135q-299 0 -436 182.5t-137 575.5zM459 492.5q0 -95.5 60.5 -151.5t149.5 -56t138 56t49 144t-50 148.5 t-145.5 60.5t-148.5 -53t-53 -148.5z" />
<glyph unicode="7" horiz-adv-x="1146" d="M84 1190v287h987v-258l-532 -1219h-379l559 1190h-635z" />
<glyph unicode="8" horiz-adv-x="1327" d="M111 442q0 260 227 371q-193 107 -193 322q0 168 135.5 288.5t383 120.5t382 -122t134.5 -289q0 -213 -191 -320q227 -111 228 -371q0 -215 -158 -343t-394.5 -128t-395 129t-158.5 342zM449 464q0 -91 56 -148.5t155.5 -57.5t151.5 58.5t52 146.5t-52 143.5t-149.5 55.5 t-155.5 -53.5t-58 -144.5zM487 1082q0 -81 51.5 -129t125 -48t125 49.5t51.5 129t-48.5 126.5t-126 47t-128 -47t-50.5 -128z" />
<glyph unicode="9" horiz-adv-x="1304" d="M131 1020.5q0 234.5 137.5 370t374.5 135.5q319 0 438 -209q57 -104 82 -236.5t25 -303.5t-13.5 -283.5t-49 -210t-95.5 -156.5q-123 -127 -371.5 -127t-367.5 131t-123 328h326q24 -172 186 -172q104 0 151.5 83t47.5 273q-39 -37 -115 -63.5t-160 -26.5 q-215 0 -344 116.5t-129 351zM467 1039q0 -83 48 -141t141.5 -58t143.5 52t50 147.5t-51 147.5t-141.5 52t-140.5 -58.5t-50 -141.5z" />
<glyph unicode=":" horiz-adv-x="655" d="M137 191.5q0 80.5 55.5 136t136.5 55.5t136 -55.5t55 -136t-55 -136t-136 -55.5t-136.5 55.5t-55.5 136zM137 1009q0 81 55.5 136t136.5 55t136 -55t55 -136t-55 -136.5t-136 -55.5t-136.5 55.5t-55.5 136.5z" />
<glyph unicode=";" horiz-adv-x="761" d="M207 1009q0 81 55 136t136 55t136.5 -55t55.5 -136t-55.5 -136.5t-136.5 -55.5t-136 55.5t-55 136.5zM231 -96v313h289q90 -207 45 -389q-20 -90 -95 -147.5t-196 -57.5v133q55 0 81 24.5t26 90.5v33h-150z" />
<glyph unicode="&#x3c;" horiz-adv-x="1132" d="M131 717l418 452h438l-418 -452l418 -453h-438z" />
<glyph unicode="=" horiz-adv-x="1597" d="M225 297v315h1147v-315h-1147zM225 819v316h1147v-316h-1147z" />
<glyph unicode="&#x3e;" horiz-adv-x="1146" d="M131 264l418 453l-418 452h438l418 -452l-418 -453h-438z" />
<glyph unicode="?" horiz-adv-x="1333" d="M184 1116q-4 191 123 317t350.5 126t360.5 -119t137 -329t-117.5 -303t-341.5 -97v-195h-329v422h137q160 0 235.5 37t75.5 141q0 70 -40 113t-110.5 43t-110.5 -42t-40 -114h-330zM348 191.5q0 80.5 55.5 136t136.5 55.5t136 -55.5t55 -136t-55 -136t-136 -55.5 t-136.5 55.5t-55.5 136z" />
<glyph unicode="@" horiz-adv-x="2615" d="M72 473q0 268 112.5 495.5t304 379t448.5 235.5t544 84q481 0 772 -248t291 -686q0 -315 -201 -531t-463 -216q-293 0 -332 252q-143 -252 -397 -252q-205 0 -339 165.5t-100.5 421.5t224 418t440.5 162t387.5 -138t106.5 -380l-33 -250q-12 -96 68 -96q90 0 186 124 t96 322q0 299 -202.5 479.5t-544.5 180.5q-289 0 -521.5 -123t-361.5 -334t-129 -465q0 -338 216 -541.5t628 -203.5l-68 -273q-516 0 -824 280.5t-308 737.5zM1051.5 569.5q-17.5 -135.5 44 -208t157 -72.5t177 73.5t98.5 208.5q18 135 -44.5 208t-156.5 73t-176 -73.5 t-99.5 -209z" />
<glyph unicode="A" horiz-adv-x="1460" d="M18 0l500 1442h426l498 -1442h-375l-80 242h-516l-80 -242h-373zM559 508h340l-170 512z" />
<glyph unicode="B" horiz-adv-x="1380" d="M154 0v1438h624q219 0 349 -106.5t130 -270.5q0 -244 -284 -330q145 -20 231 -120.5t86 -235.5q0 -172 -126 -273.5t-351 -101.5h-659zM504 266h264q72 0 119 43t47 119t-45 121t-117 45h-268v-328zM504 860h229q76 0 122 39t46 116t-46 116.5t-122 39.5h-229v-311z" />
<glyph unicode="C" horiz-adv-x="1564" d="M70 722.5q0 319.5 214 527.5t523 208q240 0 426 -127t260 -352h-418q-82 158 -262 158t-283.5 -113t-103.5 -301t103.5 -301t283.5 -113t262 158h418q-74 -225 -260 -352t-426 -127q-309 0 -523 207.5t-214 527z" />
<glyph unicode="D" horiz-adv-x="1513" d="M154 0v1438h505q344 0 565.5 -200t221.5 -518.5t-221 -519t-566 -200.5h-505zM504 266h155q201 0 316 123t115 330t-115 329.5t-316 122.5h-155v-905z" />
<glyph unicode="E" horiz-adv-x="1171" d="M154 0v1442h870v-266h-520v-310h459v-266h-459v-334h520v-266h-870z" />
<glyph unicode="F" horiz-adv-x="1177" d="M154 0v1438h936v-267h-586v-309h438v-266h-438v-596h-350z" />
<glyph unicode="G" horiz-adv-x="1564" d="M70 722.5q0 319.5 214 527.5t523 208q240 0 426 -127t260 -352h-418q-82 158 -262 158t-283.5 -113t-103.5 -301t103.5 -301t277.5 -113q125 0 204 62.5t105 167.5h-405v266h782v-266q-39 -197 -215 -367q-84 -82 -208 -133t-263 -51q-309 0 -523 207.5t-214 527z" />
<glyph unicode="H" horiz-adv-x="1562" d="M154 0v1438h350v-576h555v576h350v-1438h-350v596h-555v-596h-350z" />
<glyph unicode="I" horiz-adv-x="657" d="M154 0v1438h350v-1438h-350z" />
<glyph unicode="J" horiz-adv-x="1216" d="M59 459h349q2 -82 36.5 -121t90 -39t91.5 39t36 121v979h350v-979q0 -223 -134.5 -348t-343 -125t-342 123.5t-133.5 349.5z" />
<glyph unicode="K" horiz-adv-x="1474" d="M154 0v1438h350v-631l475 631h459l-592 -719l592 -719h-451l-483 635v-635h-350z" />
<glyph unicode="L" horiz-adv-x="980" d="M154 0v1438h350v-1172h436v-266h-786z" />
<glyph unicode="M" horiz-adv-x="1935" d="M154 0v1438h401l414 -992l411 992h402v-1438h-350v811l-334 -811h-260l-334 811v-811h-350z" />
<glyph unicode="N" horiz-adv-x="1593" d="M154 0v1442h350l586 -907v907h350v-1442h-350l-586 907v-907h-350z" />
<glyph unicode="O" horiz-adv-x="1613" d="M70 722.5q0 319.5 214 527.5t524 208t522 -208t212 -527.5t-213 -528t-522 -208.5t-523 208.5t-214 528zM426 723q0 -188 103.5 -301t276.5 -113t276.5 113t103.5 301t-103.5 301t-276.5 113t-276.5 -113t-103.5 -301z" />
<glyph unicode="P" horiz-adv-x="1306" d="M154 0v1438h567q250 0 389 -129.5t139 -311.5q0 -145 -104 -280q-55 -70 -165 -114t-259 -44h-217v-559h-350zM504 825h217q80 0 126 47.5t46 124t-47 125.5t-125 49h-217v-346z" />
<glyph unicode="Q" horiz-adv-x="1626" d="M70 722.5q0 319.5 214 527.5t524 208t522 -208t212 -527q0 -180 -72.5 -330.5t-199.5 -251.5l293 -377h-424l-174 238q-82 -16 -158 -16q-309 0 -523 208.5t-214 528zM426 723q0 -188 103.5 -301t276.5 -113t276.5 113t103.5 301t-103.5 301t-276.5 113t-276.5 -113 t-103.5 -301z" />
<glyph unicode="R" horiz-adv-x="1368" d="M154 0v1438h567q250 0 389 -129t139 -312q0 -125 -75.5 -243.5t-247.5 -167.5l352 -586h-410l-323 559h-41v-559h-350zM504 825h217q80 0 126 47.5t46 124t-47 125.5t-125 49h-217v-346z" />
<glyph unicode="S" horiz-adv-x="1325" d="M123 434h373q14 -172 176 -172q76 0 119 40t43 101.5t-39 100.5t-101.5 61.5t-139.5 42t-152.5 48t-138 68.5t-101.5 114.5t-39 177.5q0 201 149.5 321.5t382 120.5t376 -105.5t149.5 -332.5h-381q-8 78 -50 120t-108 42t-107.5 -35t-41.5 -100.5t38.5 -105.5t101 -61.5 t139.5 -41t152.5 -47t138 -68.5t101.5 -116t39 -179q0 -182 -148.5 -312t-391 -130t-391 116.5t-148.5 331.5z" />
<glyph unicode="T" horiz-adv-x="1245" d="M55 1171v267h1135v-267h-393v-1171h-351v1171h-391z" />
<glyph unicode="U" horiz-adv-x="1497" d="M147 580v858h351v-858q0 -129 63.5 -199t186 -70t188 70t65.5 199v858h351v-858q0 -190 -89 -328.5t-225.5 -202t-296.5 -63.5q-250 0 -422 155.5t-172 438.5z" />
<glyph unicode="V" horiz-adv-x="1486" d="M14 1438h373l356 -1096l357 1096h373l-510 -1438h-439z" />
<glyph unicode="W" horiz-adv-x="2140" d="M12 1438h375l250 -1035l256 1035h397l246 -1018l213 1018h377l-402 -1438h-401l-252 911l-250 -911h-401z" />
<glyph unicode="X" horiz-adv-x="1507" d="M102 0l453 719l-453 719h398l264 -420l246 420h397l-455 -721l453 -717h-397l-265 418l-243 -418h-398z" />
<glyph unicode="Y" horiz-adv-x="1406" d="M31 1438h397l277 -650l274 650h397l-497 -975v-463h-351v463z" />
<glyph unicode="Z" horiz-adv-x="1220" d="M102 0v266l613 905h-613v267h1016v-267l-612 -905h612v-266h-1016z" />
<glyph unicode="[" horiz-adv-x="1044" d="M246 -385v2331h614v-285h-287v-1761h287v-285h-614z" />
<glyph unicode="\" horiz-adv-x="1642" d="M375 1946h338l549 -2329h-338z" />
<glyph unicode="]" horiz-adv-x="1040" d="M182 -100h287v1761h-287v285h615v-2331h-615v285z" />
<glyph unicode="^" horiz-adv-x="1452" d="M61 338l496 1104h340l494 -1104h-353l-311 698l-313 -698h-353z" />
<glyph unicode="_" horiz-adv-x="1597" d="M174 -84h1270v-336h-1270v336z" />
<glyph unicode="`" horiz-adv-x="595" d="M20 1427v273l494 -238v-241z" />
<glyph unicode="a" d="M70 569q0 256 151.5 421t369.5 165t335 -162v150h350v-1143h-350v166q-127 -180 -340 -180t-364.5 163.5t-151.5 419.5zM426 569.5q0 -135.5 76 -208t174 -72.5t174 73.5t76 209t-76 208t-174 72.5t-174 -73.5t-76 -209z" />
<glyph unicode="b" d="M154 0v1516h350v-523q117 162 335 162t369.5 -165t151.5 -421t-151.5 -419.5t-366.5 -163.5t-338 180v-166h-350zM504 571.5q0 -135.5 75.5 -209t174 -73.5t174.5 72.5t76 208t-76 209t-174.5 73.5t-174 -72.5t-75.5 -208z" />
<glyph unicode="c" horiz-adv-x="1228" d="M70 571.5q0 266.5 158.5 425t410.5 158.5q209 0 354.5 -103.5t192.5 -295.5h-379q-49 102 -160.5 102t-166 -79t-54.5 -208t54.5 -207.5t158.5 -78.5q66 0 102.5 22.5t65.5 79.5h379q-47 -184 -194.5 -292.5t-352.5 -108.5q-252 0 -410.5 159.5t-158.5 426z" />
<glyph unicode="d" d="M70 569q0 256 151.5 421t369.5 165t335 -162v523h350v-1516h-350v166q-127 -180 -340 -180t-364.5 163.5t-151.5 419.5zM426 569.5q0 -135.5 76 -208t174 -72.5t174 73.5t76 209t-76 208t-174 72.5t-174 -73.5t-76 -209z" />
<glyph unicode="e" horiz-adv-x="1294" d="M70 573.5q0 266.5 158.5 424t410.5 157.5t418 -155.5t166 -432.5q0 -59 -9 -110h-786q10 -76 67.5 -124t124 -48t99.5 13t48 26.5t40 44.5h379q-49 -172 -196.5 -277.5t-350.5 -105.5q-250 0 -409.5 160.5t-159.5 427zM430 676h428q-8 80 -69.5 130t-145.5 50t-141.5 -50 t-71.5 -130z" />
<glyph unicode="f" horiz-adv-x="688" d="M51 852v291h107v43q0 217 115.5 317.5t363.5 100.5v-297q-70 0 -99.5 -27t-29.5 -94v-43h145v-291h-145v-852h-350v852h-107z" />
<glyph unicode="g" d="M70 569q0 256 151.5 421t369.5 165t335 -162v150h350v-1137q0 -240 -131 -399q-66 -82 -179.5 -127t-263.5 -45q-262 0 -415.5 106.5t-173.5 325.5h344q49 -129 245 -129q96 0 160 64.5t64 203.5v160q-127 -180 -340 -180t-364.5 163.5t-151.5 419.5zM426 569.5 q0 -135.5 76 -208t174 -72.5t174 73.5t76 209t-76 208t-174 72.5t-174 -73.5t-76 -209z" />
<glyph unicode="h" horiz-adv-x="1433" d="M154 0v1516h350v-541q109 180 346 180q197 0 318.5 -131t121.5 -356v-668h-348v621q0 111 -58.5 171t-160.5 60t-160.5 -60.5t-58.5 -170.5v-621h-350z" />
<glyph unicode="i" horiz-adv-x="657" d="M123 1418q0 87 59.5 146.5t145.5 59.5t145 -59.5t59 -146.5t-59 -146.5t-145 -59.5t-145.5 59.5t-59.5 146.5zM154 0v1143h350v-1143h-350z" />
<glyph unicode="j" horiz-adv-x="657" d="M-37 -248h84q106 0 107 80v1311h350v-1311q0 -207 -105.5 -292t-298.5 -85h-137v297zM123 1418q0 87 59.5 146.5t145.5 59.5t145 -59.5t59 -146.5t-59 -146.5t-145 -59.5t-145.5 59.5t-59.5 146.5z" />
<glyph unicode="k" horiz-adv-x="1337" d="M154 0v1516h350v-850l354 477h471l-489 -584l489 -559h-465l-360 457v-457h-350z" />
<glyph unicode="l" horiz-adv-x="657" d="M154 0v1516h350v-1516h-350z" />
<glyph unicode="m" horiz-adv-x="2220" d="M154 0v1143h350v-168q109 180 346 180q127 0 226.5 -57.5t154.5 -163.5q63 100 164.5 160.5t226.5 60.5q209 0 332 -129t123 -358v-668h-348v621q0 111 -58.5 171t-161 60t-161 -60.5t-58.5 -170.5v-621h-348v621q0 111 -58.5 171t-160.5 60t-160.5 -60.5t-58.5 -170.5 v-621h-350z" />
<glyph unicode="n" horiz-adv-x="1433" d="M154 0v1143h350v-168q109 180 346 180q197 0 318.5 -131t121.5 -356v-668h-348v621q0 111 -58.5 171t-160.5 60t-160.5 -60.5t-58.5 -170.5v-621h-350z" />
<glyph unicode="o" horiz-adv-x="1337" d="M72 573.5q0 264.5 172 423t426 158.5t425 -158.5t171 -423t-170 -426t-424 -161.5t-427 161.5t-173 426zM428 571.5q0 -139.5 72.5 -213t171 -73.5t168 73.5t69.5 213t-71.5 212t-170 72.5t-169 -72.5t-70.5 -212z" />
<glyph unicode="p" d="M154 -545v1688h350v-150q117 162 335 162t369.5 -165t151.5 -421t-151.5 -419.5t-366.5 -163.5t-338 180v-711h-350zM504 571.5q0 -135.5 75.5 -209t174 -73.5t174.5 72.5t76 208t-76 209t-174.5 73.5t-174 -72.5t-75.5 -208z" />
<glyph unicode="q" d="M70 569q0 256 151.5 421t369.5 165t335 -162v150h350v-1688h-350v711q-127 -180 -340 -180t-364.5 163.5t-151.5 419.5zM426 569.5q0 -135.5 76 -208t174 -72.5t174 73.5t76 209t-76 208t-174 72.5t-174 -73.5t-76 -209z" />
<glyph unicode="r" horiz-adv-x="868" d="M154 0v1143h350v-213q123 225 327 225v-356h-86q-121 0 -181 -57.5t-60 -200.5v-541h-350z" />
<glyph unicode="s" horiz-adv-x="1136" d="M74 362h358q14 -104 148 -104q61 0 101 28.5t40 74t-66.5 72t-161 45t-189.5 46t-161.5 96t-66.5 179.5q0 152 129 254t349 102t355 -100.5t144 -274.5h-359q-6 59 -41 81t-104 22q-137 0 -137 -84q0 -76 168 -105q170 -29 309 -88q72 -29 120 -95.5t48 -162.5 q0 -160 -137.5 -261t-346 -101t-348 95t-151.5 281z" />
<glyph unicode="t" horiz-adv-x="849" d="M76 852v291h106v278h350v-278h230v-291h-230v-475q1 -80 107 -80h125v-297h-178q-193 0 -298.5 85t-105.5 292v475h-106z" />
<glyph unicode="u" horiz-adv-x="1433" d="M143 475v668h349v-621q0 -111 58 -171t160.5 -60t161 60.5t58.5 170.5v621h350v-1143h-350v168q-109 -180 -346 -180q-197 0 -319 131t-122 356z" />
<glyph unicode="v" horiz-adv-x="1282" d="M8 1143h373l260 -850l260 850h373l-406 -1143h-454z" />
<glyph unicode="w" horiz-adv-x="1773" d="M8 1143h350l179 -803l176 803h370l177 -803l178 803h329l-342 -1143h-376l-160 676l-162 -676h-377z" />
<glyph unicode="x" horiz-adv-x="1124" d="M8 0l371 553l-371 590h393l187 -297l184 297h346l-368 -553l368 -590h-393l-186 297l-185 -297h-346z" />
<glyph unicode="y" horiz-adv-x="1312" d="M8 1143h398l253 -748l279 748h367l-730 -1688h-366l244 568z" />
<glyph unicode="z" horiz-adv-x="1054" d="M102 0v289l439 565h-439v289h850v-289l-438 -565h438v-289h-850z" />
<glyph unicode="{" horiz-adv-x="1079" d="M162 700v123q106 2 152 65.5t46 140.5t-17 204t-17 230.5t29.5 207t78.5 160.5q80 98 162 137h356v-33q-123 -45 -200.5 -189t-77.5 -347q0 -78 16.5 -203t16.5 -188q0 -203 -218 -244v-4q218 -41 218 -244q0 -63 -16.5 -188t-16.5 -203q0 -203 77.5 -347.5t200.5 -189.5 v-32h-356q-82 39 -147 116q-123 150 -123 418q0 74 17 201t17 203.5t-46 140t-152 65.5z" />
<glyph unicode="|" horiz-adv-x="780" d="M215 -264v1933h350v-1933h-350z" />
<glyph unicode="}" horiz-adv-x="1046" d="M129 -412q123 45 201 189.5t78 347.5q0 78 -16.5 203t-16.5 188q0 203 217 244v4q-217 41 -217 244q0 63 16.5 188t16.5 203q0 203 -78 347t-201 189v33h356q82 -39 148 -117q123 -150 123 -417q0 -74 -17.5 -201t-17.5 -204t46 -140.5t153 -65.5v-123 q-106 -2 -152.5 -65.5t-46.5 -140t17.5 -203.5t17.5 -230.5t-30 -207t-79 -160.5q-80 -98 -162 -137h-356v32z" />
<glyph unicode="~" horiz-adv-x="1292" d="M61 426q72 444 398 444q98 0 220 -67.5t173 -67.5q111 0 129 135h250q-72 -444 -400 -444q-98 0 -218.5 67.5t-174.5 67.5q-111 0 -131 -135h-246z" />
<glyph unicode="&#xa1;" horiz-adv-x="917" d="M264 -385l41 1024h297l41 -1024h-379zM270 963.5q0 80.5 55.5 136t136.5 55.5t136 -55.5t55 -136t-55 -136t-136 -55.5t-136.5 55.5t-55.5 136z" />
<glyph unicode="&#xa2;" horiz-adv-x="1290" d="M113 524.5q0 225.5 121.5 366.5t351.5 164v168h162v-168q182 -20 301.5 -126t128.5 -270h-322q-30 117 -186 117q-106 0 -165 -66.5t-59 -185t58.5 -185.5t165.5 -67q156 0 186 117h322q-8 -164 -128 -269.5t-302 -125.5v-168h-162v168q-229 23 -351 164t-122 366.5z" />
<glyph unicode="&#xa3;" horiz-adv-x="1357" d="M74 588v235h162q-35 127 -35 234q0 233 137 353t373.5 120t360.5 -132t124 -333h-322q0 178 -167 178q-174 0 -175 -201q0 -94 39 -219h377v-235h-319v-6q0 -195 -135 -316h710v-274h-1044l-49 172q96 86 141 182t45 238v4h-223z" />
<glyph unicode="&#xa4;" horiz-adv-x="1181" d="M123 444l113 113q-68 94 -68 221t70 215l-115 115l135 137l137 -137q88 35 196.5 35t194.5 -35l138 137l135 -137l-115 -115q70 -88 70 -217t-68 -219l113 -113l-135 -137l-131 131q-86 -37 -201 -37t-201 39l-133 -133zM438 772q0 -88 46 -134t108.5 -46t106.5 46 t44 134t-45 135t-107.5 47t-107.5 -47t-45 -135z" />
<glyph unicode="&#xa5;" horiz-adv-x="1406" d="M31 1438h397l277 -650l274 650h397l-289 -568h201v-235h-321l-60 -115h381v-235h-409v-285h-351v285h-409v235h381l-60 115h-321v235h200z" />
<glyph unicode="&#xa6;" horiz-adv-x="780" d="M215 -264v839h350v-839h-350zM215 829v840h350v-840h-350z" />
<glyph unicode="&#xa7;" horiz-adv-x="1202" d="M61 500q0 211 205 315q-131 109 -131 263.5t129 267t338 112.5t337 -100.5t128 -286.5h-362q-12 150 -111.5 150t-99.5 -107q0 -66 60 -111t237.5 -120.5t263.5 -166.5t86 -216q0 -199 -207 -316q133 -109 133 -263t-129 -267t-338 -113t-337 100.5t-128 286.5h363 q12 -150 111.5 -149.5t99.5 106.5q0 66 -60.5 111t-238 121t-263.5 167t-86 216zM432 499.5q0 -67.5 46 -113.5t124 -46t124 46t46 113.5t-46 113.5t-124 46t-124 -46t-46 -113.5z" />
<glyph unicode="&#xa8;" horiz-adv-x="751" d="M20 1419.5q0 63.5 43 107.5t106.5 44t108 -44t44.5 -107.5t-44.5 -106.5t-108 -43t-106.5 43t-43 106.5zM430 1419.5q0 63.5 43 107.5t106.5 44t107.5 -44t44 -107.5t-44 -106.5t-107.5 -43t-106.5 43t-43 106.5z" />
<glyph unicode="&#xa9;" horiz-adv-x="1613" d="M86 723q0 326 200.5 530.5t520 204.5t520.5 -204.5t201 -530.5t-201 -531.5t-520.5 -205.5t-520 205.5t-200.5 531.5zM209 724q0 -284 161.5 -455t436 -171t436.5 171t162 455t-161 453t-437.5 169t-437 -169t-160.5 -453zM344 723q0 211 125 336t308.5 125t298 -82 t151.5 -234h-299q-39 80 -127 80t-131 -61.5t-43 -163.5t43 -164.5t125 -62.5q51 0 80.5 17t52.5 62h299q-37 -145 -153.5 -230t-278.5 -85q-201 0 -326 126t-125 337z" />
<glyph unicode="&#xaa;" horiz-adv-x="960" d="M51 1081.5q0 161.5 103.5 266t257 104.5t223.5 -113v103h264v-721h-264v102q-70 -113 -223.5 -112.5t-257 105t-103.5 266zM322 1078q0 -85 46 -130t109.5 -45t110.5 46t47 132t-47 131t-110.5 45t-109.5 -47t-46 -132z" />
<glyph unicode="&#xab;" horiz-adv-x="1140" d="M92 604l172 359h324l-178 -359l178 -358h-324zM543 604l172 359h323l-178 -359l178 -358h-323z" />
<glyph unicode="&#xac;" horiz-adv-x="1581" d="M61 639v266h1397v-536h-350v270h-1047z" />
<glyph unicode="&#xad;" horiz-adv-x="1187" d="M143 573v291h901v-291h-901z" />
<glyph unicode="&#xae;" horiz-adv-x="1613" d="M86 723q0 326 209 530.5t545 204.5t544.5 -204.5t208.5 -530.5t-208.5 -531.5t-544.5 -205.5t-545 205.5t-209 531.5zM209 724q0 -284 170 -455t460.5 -171t460.5 171t170 455t-170 453t-460.5 169t-460.5 -169t-170 -453zM532 289v893h353q156 0 241.5 -81t85.5 -194 q0 -78 -47 -150.5t-153 -103.5l217 -364h-254l-201 348h-24v-348h-218zM750 801h135q49 0 77.5 29.5t28.5 77.5t-28.5 78t-77.5 30h-135v-215z" />
<glyph unicode="&#xaf;" horiz-adv-x="860" d="M20 1286v242h820v-242h-820z" />
<glyph unicode="&#xb0;" horiz-adv-x="948" d="M51 1084q0 169 117 268.5t307.5 99.5t306 -99.5t115.5 -269.5t-115.5 -271t-304 -101t-307.5 102t-119 271zM322 1081q0 -88 46 -134t108.5 -46t106.5 46t44 134t-45 135.5t-107.5 47.5t-107.5 -47.5t-45 -135.5z" />
<glyph unicode="&#xb1;" horiz-adv-x="1331" d="M143 223v316h355v190h-355v315h355v216h336v-216h354v-315h-354v-190h354v-316h-1045z" />
<glyph unicode="&#xb2;" horiz-adv-x="784" d="M76 1212q0 115 90 182.5t239.5 67.5t233.5 -70.5t84 -151.5t-47 -129t-160 -105l-160 -80h357v-205h-633v207l250 153q115 70 114.5 131.5t-51.5 61.5t-51 -62h-266z" />
<glyph unicode="&#xb3;" horiz-adv-x="765" d="M31 963h266q10 -63 72 -64q27 0 44 16.5t17 43t-19.5 43t-52.5 16.5h-45v158h33q70 0 70 50t-58 50q-33 0 -51 -18.5t-18 -45.5h-246q0 109 91 179.5t242.5 70.5t238.5 -67.5t87 -159.5q0 -111 -118 -143v-7q131 -51 131 -165q0 -94 -98.5 -150.5t-244 -56.5t-243.5 67.5 t-98 182.5z" />
<glyph unicode="&#xb4;" horiz-adv-x="534" d="M20 1221v241l494 238v-273z" />
<glyph unicode="&#xb5;" horiz-adv-x="1443" d="M154 -545v1688h348v-621q0 -111 58 -171t160.5 -60t161 60.5t58.5 170.5v621h350v-1143h-350v168q-109 -180 -346 -180q-35 0 -92 8v-541h-348z" />
<glyph unicode="&#xb6;" horiz-adv-x="1449" d="M57 997.5q0 186.5 122 313.5t366 127h751v-1438h-288v1171h-127v-1171h-289v559h-47q-244 0 -366 126t-122 312.5z" />
<glyph unicode="&#xb7;" horiz-adv-x="567" d="M92 662.5q0 80.5 55.5 136t136.5 55.5t136 -55.5t55 -136t-55 -136t-136 -55.5t-136.5 55.5t-55.5 136z" />
<glyph unicode="&#xb8;" horiz-adv-x="641" d="M20 -354h227.5t85.5 2t13 4t11 6t8 10q6 6 6 31q0 51 -47 51h-181v264h211v-90q113 0 190 -55t77 -171t-79 -179.5t-188 -63.5h-334v191z" />
<glyph unicode="&#xb9;" horiz-adv-x="509" d="M41 1239v203h387v-721h-264v518h-123z" />
<glyph unicode="&#xba;" horiz-adv-x="948" d="M51 1084q0 169 117 268.5t307.5 99.5t306 -99.5t115.5 -269.5t-115.5 -271t-304 -101t-307.5 102t-119 271zM322 1081q0 -88 46 -134t108.5 -46t106.5 46t44 134t-45 135.5t-107.5 47.5t-107.5 -47.5t-45 -135.5z" />
<glyph unicode="&#xbb;" horiz-adv-x="1140" d="M102 246l179 358l-179 359h324l172 -359l-172 -358h-324zM553 246l178 358l-178 359h324l172 -359l-172 -358h-324z" />
<glyph unicode="&#xbc;" horiz-adv-x="1609" d="M82 1239v203h387v-721h-264v518h-123zM180 0l789 1442h338l-789 -1442h-338zM803 127v139l276 455h387v-445h82v-149h-82v-127h-264v127h-399zM1055 276h159v291z" />
<glyph unicode="&#xbd;" horiz-adv-x="1681" d="M82 1239v203h387v-721h-264v518h-123zM180 0l789 1442h338l-789 -1442h-338zM913 489q0 115 90.5 182.5t240 67.5t233.5 -70.5t84 -151.5t-47.5 -129t-159.5 -105l-160 -80h356v-205h-632v207l249 153q115 70 115 131.5t-51 61.5t-51 -62h-267z" />
<glyph unicode="&#xbe;" horiz-adv-x="1824" d="M102 963h267q10 -63 71 -64q27 0 44.5 16.5t17.5 43t-19.5 43t-52.5 16.5h-45v158h33q70 0 69.5 50t-57.5 50q-33 0 -51.5 -18.5t-18.5 -45.5h-245q0 109 91 179.5t242.5 70.5t238.5 -67.5t87 -159.5q0 -111 -119 -143v-7q131 -51 131 -165q0 -94 -98 -150.5 t-243.5 -56.5t-244 67.5t-98.5 182.5zM416 0l788 1442h338l-788 -1442h-338zM1038 127v139l277 455h387v-445h82v-149h-82v-127h-264v127h-400zM1290 276h160v291z" />
<glyph unicode="&#xbf;" horiz-adv-x="1331" d="M178 44q0 210 118 303t341 97v195h330v-422h-138q-160 0 -235.5 -37t-75.5 -141q0 -70 40 -113t110.5 -43t110.5 42t40 114h330q4 -191 -123 -316.5t-350 -125.5t-360.5 118.5t-137.5 328.5zM602 963.5q0 80.5 55.5 136t136 55.5t136 -55.5t55.5 -136t-55.5 -136 t-136 -55.5t-136 55.5t-55.5 136z" />
<glyph unicode="&#xc0;" horiz-adv-x="1460" d="M18 0l500 1442h426l498 -1442h-375l-80 242h-516l-80 -242h-373zM475 1726v273l494 -238v-241zM559 508h340l-170 512z" />
<glyph unicode="&#xc1;" horiz-adv-x="1460" d="M18 0l500 1442h426l498 -1442h-375l-80 242h-516l-80 -242h-373zM475 1520v241l494 238v-273zM559 508h340l-170 512z" />
<glyph unicode="&#xc2;" horiz-adv-x="1460" d="M18 0l500 1442h426l498 -1442h-375l-80 242h-516l-80 -242h-373zM414 1516v241l317 172l318 -172v-241l-318 178zM559 508h340l-170 512z" />
<glyph unicode="&#xc3;" horiz-adv-x="1460" d="M18 0l500 1442h426l498 -1442h-375l-80 242h-516l-80 -242h-373zM332 1548q49 303 272 303q68 0 150 -46t118 -46q76 0 89 92h169q-49 -303 -272 -303q-68 0 -149.5 46t-118.5 46q-76 0 -90 -92h-168zM559 508h340l-170 512z" />
<glyph unicode="&#xc4;" horiz-adv-x="1460" d="M18 0l500 1442h426l498 -1442h-375l-80 242h-516l-80 -242h-373zM375 1718.5q0 63.5 43 107.5t107.5 44t107.5 -44t43 -107.5t-44 -106.5t-107.5 -43t-106.5 43t-43 106.5zM559 508h340l-170 512zM784 1718.5q0 63.5 43 107.5t107.5 44t107.5 -44t43 -107.5t-44 -106.5 t-107.5 -43t-106.5 43t-43 106.5z" />
<glyph unicode="&#xc5;" horiz-adv-x="1460" d="M18 0l500 1442h426l498 -1442h-375l-80 242h-516l-80 -242h-373zM483 1773.5q0 112.5 71 180t177.5 67.5t177 -67.5t70.5 -180t-70.5 -180t-177 -67.5t-177.5 67.5t-71 180zM559 508h340l-170 512zM633 1776q0 -43 27.5 -72t70.5 -29t71.5 29t28.5 72t-28.5 70.5 t-71.5 27.5t-70.5 -27.5t-27.5 -70.5z" />
<glyph unicode="&#xc6;" horiz-adv-x="2011" d="M18 0l727 1442h1119v-266h-521v-310h459v-266h-459v-334h521v-266h-871v242h-475l-119 -242h-381zM647 508h346v704z" />
<glyph unicode="&#xc7;" horiz-adv-x="1564" d="M70 738q0 304 214 512t523 208q240 0 426 -127t260 -352h-418q-82 158 -262 158t-283.5 -113t-103.5 -301t103.5 -301t283.5 -113t262 158h418q-66 -203 -223.5 -327t-366.5 -146v-70q113 0 189.5 -55t76.5 -171t-78.5 -179.5t-187.5 -63.5h-334v191h227.5t85.5 2t13 4 t11 6t7 10q7 6 7 31q0 51 -48 51h-180v246q-270 39 -446 238.5t-176 503.5z" />
<glyph unicode="&#xc8;" horiz-adv-x="1171" d="M154 0v1442h870v-266h-520v-310h459v-266h-459v-334h520v-266h-870zM330 1726v273l493 -238v-241z" />
<glyph unicode="&#xc9;" horiz-adv-x="1171" d="M154 0v1442h870v-266h-520v-310h459v-266h-459v-334h520v-266h-870zM330 1520v241l493 238v-273z" />
<glyph unicode="&#xca;" horiz-adv-x="1171" d="M154 0v1442h870v-266h-520v-310h459v-266h-459v-334h520v-266h-870zM268 1516v241l318 172l317 -172v-241l-317 178z" />
<glyph unicode="&#xcb;" horiz-adv-x="1171" d="M154 0v1442h870v-266h-520v-310h459v-266h-459v-334h520v-266h-870zM229 1718.5q0 63.5 43 107.5t106.5 44t107.5 -44t44 -107.5t-44 -106.5t-107.5 -43t-106.5 43t-43 106.5zM639 1718.5q0 63.5 43 107.5t106.5 44t107.5 -44t44 -107.5t-44 -106.5t-107.5 -43t-106.5 43 t-43 106.5z" />
<glyph unicode="&#xcc;" horiz-adv-x="657" d="M74 1726v273l493 -238v-241zM154 0v1438h350v-1438h-350z" />
<glyph unicode="&#xcd;" horiz-adv-x="657" d="M74 1520v241l493 238v-273zM154 0v1438h350v-1438h-350z" />
<glyph unicode="&#xce;" horiz-adv-x="657" d="M12 1516v241l318 172l317 -172v-241l-317 178zM154 0v1438h350v-1438h-350z" />
<glyph unicode="&#xcf;" horiz-adv-x="657" d="M-27 1718.5q0 63.5 43 107.5t107.5 44t107.5 -44t43 -107.5t-44 -106.5t-107.5 -43t-106.5 43t-43 106.5zM154 0v1438h350v-1438h-350zM383 1718.5q0 63.5 43 107.5t107.5 44t107.5 -44t43 -107.5t-44 -106.5t-107.5 -43t-106.5 43t-43 106.5z" />
<glyph unicode="&#xd0;" horiz-adv-x="1513" d="M41 551v336h113v551h505q344 0 565.5 -200t221.5 -518.5t-221 -519t-566 -200.5h-505v551h-113zM504 266h155q201 0 316 123t115 330t-115 329.5t-316 122.5h-155v-284h297v-336h-297v-285z" />
<glyph unicode="&#xd1;" horiz-adv-x="1593" d="M154 0v1442h350l586 -907v907h350v-1442h-350l-586 907v-907h-350zM397 1548q50 303 273 303q68 0 149.5 -46t118.5 -46q76 0 88 92h170q-49 -303 -272 -303q-68 0 -150 46t-119 46q-76 0 -90 -92h-168z" />
<glyph unicode="&#xd2;" horiz-adv-x="1613" d="M70 722.5q0 319.5 214 527.5t524 208t522 -208t212 -527.5t-213 -528t-522 -208.5t-523 208.5t-214 528zM426 723q0 -188 103.5 -301t276.5 -113t276.5 113t103.5 301t-103.5 301t-276.5 113t-276.5 -113t-103.5 -301zM551 1726v273l493 -238v-241z" />
<glyph unicode="&#xd3;" horiz-adv-x="1613" d="M70 722.5q0 319.5 214 527.5t524 208t522 -208t212 -527.5t-213 -528t-522 -208.5t-523 208.5t-214 528zM426 723q0 -188 103.5 -301t276.5 -113t276.5 113t103.5 301t-103.5 301t-276.5 113t-276.5 -113t-103.5 -301zM551 1520v241l493 238v-273z" />
<glyph unicode="&#xd4;" horiz-adv-x="1613" d="M70 722.5q0 319.5 214 527.5t524 208t522 -208t212 -527.5t-213 -528t-522 -208.5t-523 208.5t-214 528zM426 723q0 -188 103.5 -301t276.5 -113t276.5 113t103.5 301t-103.5 301t-276.5 113t-276.5 -113t-103.5 -301zM489 1516v241l318 172l317 -172v-241l-317 178z" />
<glyph unicode="&#xd5;" horiz-adv-x="1613" d="M70 722.5q0 319.5 214 527.5t524 208t522 -208t212 -527.5t-213 -528t-522 -208.5t-523 208.5t-214 528zM408 1548q49 303 272 303q66 0 149.5 -46t118.5 -46q76 0 88 92h170q-49 -303 -272 -303q-66 0 -150 46t-118 46q-76 0 -91 -92h-167zM426 723q0 -188 103.5 -301 t276.5 -113t276.5 113t103.5 301t-103.5 301t-276.5 113t-276.5 -113t-103.5 -301z" />
<glyph unicode="&#xd6;" horiz-adv-x="1613" d="M70 722.5q0 319.5 214 527.5t524 208t522 -208t212 -527.5t-213 -528t-522 -208.5t-523 208.5t-214 528zM426 723q0 -188 103.5 -301t276.5 -113t276.5 113t103.5 301t-103.5 301t-276.5 113t-276.5 -113t-103.5 -301zM451 1718.5q0 63.5 43 107.5t106.5 44t107.5 -44 t44 -107.5t-44 -106.5t-107.5 -43t-106.5 43t-43 106.5zM860 1718.5q0 63.5 43 107.5t106.5 44t107.5 -44t44 -107.5t-44 -106.5t-107.5 -43t-106.5 43t-43 106.5z" />
<glyph unicode="&#xd7;" horiz-adv-x="1337" d="M158 444l282 283l-274 274l229 228l273 -273l270 273l227 -225l-272 -273l287 -287l-230 -227l-284 285l-281 -283z" />
<glyph unicode="&#xd8;" horiz-adv-x="1613" d="M47 0l205 227q-182 205 -182 510t214 513t523 208q246 0 438 -135l109 119h213l-205 -225q180 -203 180 -508.5t-213 -514t-522 -208.5q-246 0 -436 135l-111 -121h-213zM426 723q0 -139 59 -240l537 592q-88 62 -215 62q-174 0 -277.5 -113t-103.5 -301zM594 369 q90 -60 213 -60q172 0 275.5 113t103.5 301q0 137 -58 235z" />
<glyph unicode="&#xd9;" horiz-adv-x="1497" d="M147 580v858h351v-858q0 -129 63.5 -199t186 -70t188 70t65.5 199v858h351v-858q0 -190 -89 -328.5t-225.5 -202t-296.5 -63.5q-250 0 -422 155.5t-172 438.5zM494 1726v273l493 -238v-241z" />
<glyph unicode="&#xda;" horiz-adv-x="1497" d="M147 580v858h351v-858q0 -129 63.5 -199t186 -70t188 70t65.5 199v858h351v-858q0 -190 -89 -328.5t-225.5 -202t-296.5 -63.5q-250 0 -422 155.5t-172 438.5zM494 1520v241l493 238v-273z" />
<glyph unicode="&#xdb;" horiz-adv-x="1497" d="M147 580v858h351v-858q0 -129 63.5 -199t186 -70t188 70t65.5 199v858h351v-858q0 -190 -89 -328.5t-225.5 -202t-296.5 -63.5q-250 0 -422 155.5t-172 438.5zM432 1516v241l318 172l317 -172v-241l-317 178z" />
<glyph unicode="&#xdc;" horiz-adv-x="1497" d="M147 580v858h351v-858q0 -129 63.5 -199t186 -70t188 70t65.5 199v858h351v-858q0 -190 -89 -328.5t-225.5 -202t-296.5 -63.5q-250 0 -422 155.5t-172 438.5zM393 1718.5q0 63.5 43 107.5t106.5 44t107.5 -44t44 -107.5t-44 -106.5t-107.5 -43t-106.5 43t-43 106.5z M803 1718.5q0 63.5 43 107.5t106.5 44t107.5 -44t44 -107.5t-44 -106.5t-107.5 -43t-106.5 43t-43 106.5z" />
<glyph unicode="&#xdd;" horiz-adv-x="1406" d="M31 1438h397l277 -650l274 650h397l-497 -975v-463h-351v463zM449 1520v241l493 238v-273z" />
<glyph unicode="&#xde;" horiz-adv-x="1306" d="M154 0v1442h342v-281h225q250 0 389 -129t139 -311q0 -145 -104 -279q-55 -72 -165 -115.5t-259 -43.5h-217v-283h-350zM504 549h217q80 0 126 47t46 124t-47 126t-125 49h-217v-346z" />
<glyph unicode="&#xdf;" horiz-adv-x="1527" d="M154 0v1051q0 227 141 356t386 129t374 -110.5t129 -257t-148 -236.5l162 -92q156 -86 221.5 -181.5t65.5 -236.5q0 -188 -131 -312t-318.5 -124t-306.5 113.5t-121 303.5h277q8 -55 40.5 -84.5t81 -29.5t85 41t36.5 92q0 86 -122 153l-308 173v143l41 24q86 51 86 154 q0 68 -45 116t-113.5 48t-116.5 -49t-48 -133l2 -1051h-350z" />
<glyph unicode="&#xe0;" d="M70 569q0 256 151.5 421t369.5 165t335 -162v150h350v-1143h-350v166q-127 -180 -340 -180t-364.5 163.5t-151.5 419.5zM426 569.5q0 -135.5 76 -208t174 -72.5t174 73.5t76 209t-76 208t-174 72.5t-174 -73.5t-76 -209zM459 1427v273l493 -238v-241z" />
<glyph unicode="&#xe1;" d="M70 569q0 256 151.5 421t369.5 165t335 -162v150h350v-1143h-350v166q-127 -180 -340 -180t-364.5 163.5t-151.5 419.5zM426 569.5q0 -135.5 76 -208t174 -72.5t174 73.5t76 209t-76 208t-174 72.5t-174 -73.5t-76 -209zM459 1221v241l493 238v-273z" />
<glyph unicode="&#xe2;" d="M70 569q0 256 151.5 421t369.5 165t335 -162v150h350v-1143h-350v166q-127 -180 -340 -180t-364.5 163.5t-151.5 419.5zM397 1217v241l318 172l317 -172v-241l-317 178zM426 569.5q0 -135.5 76 -208t174 -72.5t174 73.5t76 209t-76 208t-174 72.5t-174 -73.5t-76 -209z " />
<glyph unicode="&#xe3;" d="M70 569q0 256 151.5 421t369.5 165t335 -162v150h350v-1143h-350v166q-127 -180 -340 -180t-364.5 163.5t-151.5 419.5zM315 1249q50 303 273 303q68 0 149.5 -46t118.5 -46q76 0 88 92h170q-49 -303 -272 -303q-68 0 -150 46t-119 46q-76 0 -90 -92h-168zM426 569.5 q0 -135.5 76 -208t174 -72.5t174 73.5t76 209t-76 208t-174 72.5t-174 -73.5t-76 -209z" />
<glyph unicode="&#xe4;" d="M70 569q0 256 151.5 421t369.5 165t335 -162v150h350v-1143h-350v166q-127 -180 -340 -180t-364.5 163.5t-151.5 419.5zM358 1419.5q0 63.5 43 107.5t107.5 44t107.5 -44t43 -107.5t-44 -106.5t-107.5 -43t-106.5 43t-43 106.5zM426 569.5q0 -135.5 76 -208t174 -72.5 t174 73.5t76 209t-76 208t-174 72.5t-174 -73.5t-76 -209zM768 1419.5q0 63.5 43 107.5t107.5 44t107.5 -44t43 -107.5t-44 -106.5t-107.5 -43t-106.5 43t-43 106.5z" />
<glyph unicode="&#xe5;" d="M70 569q0 256 151.5 421t369.5 165t335 -162v150h350v-1143h-350v166q-127 -180 -340 -180t-364.5 163.5t-151.5 419.5zM426 569.5q0 -135.5 76 -208t174 -72.5t174 73.5t76 209t-76 208t-174 72.5t-174 -73.5t-76 -209zM467 1474.5q0 112.5 70.5 180t177 67.5 t177.5 -67.5t71 -180t-71 -180t-177.5 -67.5t-177 67.5t-70.5 180zM616 1477q0 -43 28 -72t71 -29t71.5 29t28.5 72t-28.5 70.5t-71.5 27.5t-71 -27.5t-28 -70.5z" />
<glyph unicode="&#xe6;" horiz-adv-x="2250" d="M70 569q0 256 151.5 421t369.5 165t335 -162v150h350v-150q139 162 366.5 162t382 -162t154.5 -426q0 -59 -8 -110h-821q23 -92 89 -132t138 -40q131 0 186 84h379q-49 -172 -179 -277.5t-306 -105.5q-121 0 -226.5 50t-154.5 132v-168h-350v166q-127 -180 -340 -180 t-364.5 163.5t-151.5 419.5zM426 569.5q0 -135.5 76 -208t174 -72.5t174 73.5t76 209t-76 208t-174 72.5t-174 -73.5t-76 -209zM1346 676h471q-9 82 -70 131t-153.5 49t-162 -50t-85.5 -130z" />
<glyph unicode="&#xe7;" horiz-adv-x="1228" d="M70 588q0 250 158.5 408.5t410.5 158.5q209 0 354.5 -103.5t192.5 -295.5h-379q-49 102 -160.5 102t-166 -79t-54.5 -208t54.5 -207.5t158.5 -78.5q66 0 102.5 22.5t65.5 79.5h379q-41 -162 -161 -266.5t-290 -128.5v-68q113 0 189.5 -55t76.5 -171t-78.5 -179.5 t-187.5 -63.5h-334v191h227.5t85.5 2t13 4t11 6t7 10q7 6 7 31q0 51 -47 51h-181v246q-205 35 -329.5 188.5t-124.5 403.5z" />
<glyph unicode="&#xe8;" horiz-adv-x="1294" d="M70 573.5q0 266.5 158.5 424t410.5 157.5t418 -155.5t166 -432.5q0 -59 -9 -110h-786q10 -76 67.5 -124t124 -48t99.5 13t48 26.5t40 44.5h379q-49 -172 -196.5 -277.5t-350.5 -105.5q-250 0 -409.5 160.5t-159.5 427zM391 1427v273l494 -238v-241zM430 676h428 q-8 80 -69.5 130t-145.5 50t-141.5 -50t-71.5 -130z" />
<glyph unicode="&#xe9;" horiz-adv-x="1294" d="M70 573.5q0 266.5 158.5 424t410.5 157.5t418 -155.5t166 -432.5q0 -59 -9 -110h-786q10 -76 67.5 -124t124 -48t99.5 13t48 26.5t40 44.5h379q-49 -172 -196.5 -277.5t-350.5 -105.5q-250 0 -409.5 160.5t-159.5 427zM391 1221v241l494 238v-273zM430 676h428 q-8 80 -69.5 130t-145.5 50t-141.5 -50t-71.5 -130z" />
<glyph unicode="&#xea;" horiz-adv-x="1294" d="M70 573.5q0 266.5 158.5 424t410.5 157.5t418 -155.5t166 -432.5q0 -59 -9 -110h-786q10 -76 67.5 -124t124 -48t99.5 13t48 26.5t40 44.5h379q-49 -172 -196.5 -277.5t-350.5 -105.5q-250 0 -409.5 160.5t-159.5 427zM330 1217v241l317 172l318 -172v-241l-318 178z M430 676h428q-8 80 -69.5 130t-145.5 50t-141.5 -50t-71.5 -130z" />
<glyph unicode="&#xeb;" horiz-adv-x="1294" d="M70 573.5q0 266.5 158.5 424t410.5 157.5t418 -155.5t166 -432.5q0 -59 -9 -110h-786q10 -76 67.5 -124t124 -48t99.5 13t48 26.5t40 44.5h379q-49 -172 -196.5 -277.5t-350.5 -105.5q-250 0 -409.5 160.5t-159.5 427zM291 1419.5q0 63.5 43 107.5t106.5 44t107.5 -44 t44 -107.5t-44 -106.5t-107.5 -43t-106.5 43t-43 106.5zM430 676h428q-8 80 -69.5 130t-145.5 50t-141.5 -50t-71.5 -130zM700 1419.5q0 63.5 43 107.5t106.5 44t107.5 -44t44 -107.5t-44 -106.5t-107.5 -43t-106.5 43t-43 106.5z" />
<glyph unicode="&#xec;" horiz-adv-x="657" d="M74 1427v273l493 -238v-241zM154 0v1143h350v-1143h-350z" />
<glyph unicode="&#xed;" horiz-adv-x="657" d="M74 1221v241l493 238v-273zM154 0v1143h350v-1143h-350z" />
<glyph unicode="&#xee;" horiz-adv-x="657" d="M12 1217v241l318 172l317 -172v-241l-317 178zM154 0v1143h350v-1143h-350z" />
<glyph unicode="&#xef;" horiz-adv-x="657" d="M-27 1419.5q0 63.5 43 107.5t107.5 44t107.5 -44t43 -107.5t-44 -106.5t-107.5 -43t-106.5 43t-43 106.5zM154 0v1143h350v-1143h-350zM383 1419.5q0 63.5 43 107.5t107.5 44t107.5 -44t43 -107.5t-44 -106.5t-107.5 -43t-106.5 43t-43 106.5z" />
<glyph unicode="&#xf0;" horiz-adv-x="1335" d="M70 573.5q0 264.5 161.5 423t407.5 158.5q119 0 233 -63q-35 82 -104 178l-215 -66v137l127 39q-68 70 -141 136h321l62 -62l194 59v-137l-102 -30q250 -326 250 -697q0 -315 -168 -489t-424 -174t-429 161.5t-173 426zM426 571.5q0 -139.5 72.5 -213t171 -73.5t168 73.5 t69.5 213t-71.5 212t-170 72.5t-169 -72.5t-70.5 -212z" />
<glyph unicode="&#xf1;" horiz-adv-x="1433" d="M154 0v1143h350v-168q109 180 346 180q197 0 318.5 -131t121.5 -356v-668h-348v621q0 111 -58.5 171t-160.5 60t-160.5 -60.5t-58.5 -170.5v-621h-350zM367 1249q49 303 272 303q66 0 149.5 -46t118.5 -46q76 0 88 92h170q-49 -303 -272 -303q-66 0 -150 46t-118 46 q-76 0 -90 -92h-168z" />
<glyph unicode="&#xf2;" horiz-adv-x="1337" d="M72 573.5q0 264.5 172 423t426 158.5t425 -158.5t171 -423t-170 -426t-424 -161.5t-427 161.5t-173 426zM414 1427v273l493 -238v-241zM428 571.5q0 -139.5 72.5 -213t171 -73.5t168 73.5t69.5 213t-71.5 212t-170 72.5t-169 -72.5t-70.5 -212z" />
<glyph unicode="&#xf3;" horiz-adv-x="1337" d="M72 573.5q0 264.5 172 423t426 158.5t425 -158.5t171 -423t-170 -426t-424 -161.5t-427 161.5t-173 426zM414 1221v241l493 238v-273zM428 571.5q0 -139.5 72.5 -213t171 -73.5t168 73.5t69.5 213t-71.5 212t-170 72.5t-169 -72.5t-70.5 -212z" />
<glyph unicode="&#xf4;" horiz-adv-x="1337" d="M72 573.5q0 264.5 172 423t426 158.5t425 -158.5t171 -423t-170 -426t-424 -161.5t-427 161.5t-173 426zM352 1217v241l318 172l317 -172v-241l-317 178zM428 571.5q0 -139.5 72.5 -213t171 -73.5t168 73.5t69.5 213t-71.5 212t-170 72.5t-169 -72.5t-70.5 -212z" />
<glyph unicode="&#xf5;" horiz-adv-x="1337" d="M72 573.5q0 264.5 172 423t426 158.5t425 -158.5t171 -423t-170 -426t-424 -161.5t-427 161.5t-173 426zM270 1249q50 303 273 303q68 0 149.5 -46t118.5 -46q76 0 88 92h170q-49 -303 -272 -303q-68 0 -150 46t-119 46q-76 0 -90 -92h-168zM428 571.5 q0 -139.5 72.5 -213t171 -73.5t168 73.5t69.5 213t-71.5 212t-170 72.5t-169 -72.5t-70.5 -212z" />
<glyph unicode="&#xf6;" horiz-adv-x="1337" d="M72 573.5q0 264.5 172 423t426 158.5t425 -158.5t171 -423t-170 -426t-424 -161.5t-427 161.5t-173 426zM313 1419.5q0 63.5 43 107.5t107.5 44t107.5 -44t43 -107.5t-44 -106.5t-107.5 -43t-106.5 43t-43 106.5zM428 571.5q0 -139.5 72.5 -213t171 -73.5t168 73.5 t69.5 213t-71.5 212t-170 72.5t-169 -72.5t-70.5 -212zM723 1419.5q0 63.5 43 107.5t107.5 44t107.5 -44t43 -107.5t-44 -106.5t-107.5 -43t-106.5 43t-43 106.5z" />
<glyph unicode="&#xf7;" horiz-adv-x="1245" d="M86 559v315h1044v-315h-1044zM416 281.5q0 80.5 55 136t136 55.5t136.5 -55.5t55.5 -136t-55.5 -136t-136.5 -55.5t-136 55.5t-55 136zM416 1152q0 81 55 136t136 55t136.5 -55t55.5 -136t-55.5 -136t-136.5 -55t-136 55t-55 136z" />
<glyph unicode="&#xf8;" horiz-adv-x="1337" d="M51 0l164 180q-141 158 -141 408t172 408.5t426 158.5q197 0 348 -98l78 86h188l-162 -176q143 -156 143.5 -407t-169.5 -412.5t-424 -161.5q-199 0 -352 102l-82 -88h-189zM430 571q0 -76 23 -133l348 379q-57 39 -143.5 39t-157 -72.5t-70.5 -212.5zM539 328 q61 -43 147 -43t155.5 73.5t69.5 212.5q0 80 -24 136z" />
<glyph unicode="&#xf9;" horiz-adv-x="1433" d="M143 475v668h349v-621q0 -111 58 -171t160.5 -60t161 60.5t58.5 170.5v621h350v-1143h-350v168q-109 -180 -346 -180q-197 0 -319 131t-122 356zM461 1427v273l493 -238v-241z" />
<glyph unicode="&#xfa;" horiz-adv-x="1433" d="M143 475v668h349v-621q0 -111 58 -171t160.5 -60t161 60.5t58.5 170.5v621h350v-1143h-350v168q-109 -180 -346 -180q-197 0 -319 131t-122 356zM461 1221v241l493 238v-273z" />
<glyph unicode="&#xfb;" horiz-adv-x="1433" d="M143 475v668h349v-621q0 -111 58 -171t160.5 -60t161 60.5t58.5 170.5v621h350v-1143h-350v168q-109 -180 -346 -180q-197 0 -319 131t-122 356zM399 1217v241l318 172l317 -172v-241l-317 178z" />
<glyph unicode="&#xfc;" horiz-adv-x="1433" d="M143 475v668h349v-621q0 -111 58 -171t160.5 -60t161 60.5t58.5 170.5v621h350v-1143h-350v168q-109 -180 -346 -180q-197 0 -319 131t-122 356zM360 1419.5q0 63.5 43 107.5t106.5 44t108 -44t44.5 -107.5t-44.5 -106.5t-108 -43t-106.5 43t-43 106.5zM770 1419.5 q0 63.5 43 107.5t106.5 44t107.5 -44t44 -107.5t-44 -106.5t-107.5 -43t-106.5 43t-43 106.5z" />
<glyph unicode="&#xfd;" horiz-adv-x="1312" d="M8 1143h398l253 -748l279 748h367l-730 -1688h-366l244 568zM401 1221v241l494 238v-273z" />
<glyph unicode="&#xfe;" d="M154 -545v2061h350v-523q117 162 335 162t369.5 -165t151.5 -421t-151.5 -419.5t-366.5 -163.5t-338 180v-711h-350zM504 571.5q0 -135.5 75.5 -209t174 -73.5t174.5 72.5t76 208t-76 209t-174.5 73.5t-174 -72.5t-75.5 -208z" />
<glyph unicode="&#xff;" horiz-adv-x="1312" d="M8 1143h398l253 -748l279 748h367l-730 -1688h-366l244 568zM301 1419.5q0 63.5 43 107.5t107.5 44t107.5 -44t43 -107.5t-44 -106.5t-107.5 -43t-106.5 43t-43 106.5zM711 1419.5q0 63.5 43 107.5t107.5 44t107.5 -44t43 -107.5t-44 -106.5t-107.5 -43t-106.5 43 t-43 106.5z" />
<glyph unicode="&#x152;" horiz-adv-x="2203" d="M70 722.5q0 319.5 214 527.5t523 208q213 0 379 -149v129h870v-267h-520v-309h459v-266h-459v-330h520v-266h-870v129q-174 -143 -379 -143q-309 0 -523 208.5t-214 528zM426 723q0 -188 103.5 -301t276.5 -113t276.5 113t103.5 301t-103.5 301t-276.5 113t-276.5 -113 t-103.5 -301z" />
<glyph unicode="&#x153;" horiz-adv-x="2131" d="M70 573.5q0 264.5 172 423t421.5 158.5t413.5 -186q156 186 404 186t413.5 -155.5t165.5 -432.5q0 -59 -8 -110h-786q10 -76 67.5 -124t124 -48t99 13t48 26.5t40.5 44.5h378q-49 -172 -196 -277.5t-350 -105.5q-242 0 -398 186q-164 -186 -413.5 -186t-422.5 161.5 t-173 426zM426 571.5q0 -139.5 72.5 -213t171 -73.5t168 73.5t69.5 213t-71.5 212t-170 72.5t-169 -72.5t-70.5 -212zM1268 676h428q-8 80 -69.5 130t-145.5 50t-141.5 -50t-71.5 -130z" />
<glyph unicode="&#x178;" horiz-adv-x="1406" d="M31 1438h397l277 -650l274 650h397l-497 -975v-463h-351v463zM348 1718.5q0 63.5 43 107.5t106.5 44t107.5 -44t44 -107.5t-44 -106.5t-107.5 -43t-106.5 43t-43 106.5zM758 1718.5q0 63.5 43 107.5t106.5 44t107.5 -44t44 -107.5t-44 -106.5t-107.5 -43t-106.5 43 t-43 106.5z" />
<glyph unicode="&#x2c6;" horiz-adv-x="675" d="M20 1217v241l318 172l317 -172v-241l-317 178z" />
<glyph unicode="&#x2dc;" horiz-adv-x="839" d="M20 1249q50 303 273 303q68 0 149.5 -46t118.5 -46q76 0 88 92h170q-49 -303 -272 -303q-68 0 -150 46t-118 46q-76 0 -91 -92h-168z" />
<glyph unicode="&#x2000;" horiz-adv-x="1015" />
<glyph unicode="&#x2001;" horiz-adv-x="2030" />
<glyph unicode="&#x2002;" horiz-adv-x="1015" />
<glyph unicode="&#x2003;" horiz-adv-x="2030" />
<glyph unicode="&#x2004;" horiz-adv-x="676" />
<glyph unicode="&#x2005;" horiz-adv-x="507" />
<glyph unicode="&#x2006;" horiz-adv-x="338" />
<glyph unicode="&#x2007;" horiz-adv-x="338" />
<glyph unicode="&#x2008;" horiz-adv-x="253" />
<glyph unicode="&#x2009;" horiz-adv-x="406" />
<glyph unicode="&#x200a;" horiz-adv-x="112" />
<glyph unicode="&#x2010;" horiz-adv-x="1187" d="M143 573v291h901v-291h-901z" />
<glyph unicode="&#x2011;" horiz-adv-x="1187" d="M143 573v291h901v-291h-901z" />
<glyph unicode="&#x2012;" horiz-adv-x="1187" d="M143 573v291h901v-291h-901z" />
<glyph unicode="&#x2013;" horiz-adv-x="1423" d="M143 573v291h1137v-291h-1137z" />
<glyph unicode="&#x2014;" horiz-adv-x="1904" d="M143 573v291h1618v-291h-1618z" />
<glyph unicode="&#x2018;" horiz-adv-x="473" d="M82 1421q0 131 72.5 215t214.5 84v-133q-106 0 -107 -135v-33h129v-252h-268q-41 123 -41 254z" />
<glyph unicode="&#x2019;" horiz-adv-x="473" d="M82 1468v252h268q41 -123 41 -254t-72.5 -215t-214.5 -84v133q106 0 107 136v32h-129z" />
<glyph unicode="&#x201a;" horiz-adv-x="493" d="M61 -96v313h289q90 -207 47 -389q-23 -90 -97.5 -147.5t-195.5 -57.5v133q55 0 81 24.5t26 90.5v33h-150z" />
<glyph unicode="&#x201c;" horiz-adv-x="862" d="M82 1421q0 131 72.5 215t214.5 84v-133q-106 0 -107 -135v-33h129v-252h-268q-41 123 -41 254zM471 1421q0 131 72.5 215t214.5 84v-133q-106 0 -107 -135v-33h129v-252h-268q-41 123 -41 254z" />
<glyph unicode="&#x201d;" horiz-adv-x="862" d="M82 1468v252h268q41 -123 41 -254t-72.5 -215t-214.5 -84v133q106 0 107 136v32h-129zM471 1468v252h268q41 -123 41 -254t-72.5 -215t-213.5 -84v133q106 0 106 136v32h-129z" />
<glyph unicode="&#x201e;" horiz-adv-x="493" d="M61 -96v313h289q90 -207 47 -389q-23 -90 -97.5 -147.5t-195.5 -57.5v133q55 0 81 24.5t26 90.5v33h-150z" />
<glyph unicode="&#x2022;" horiz-adv-x="1026" d="M205 683q0 130 89 219t219 89t219 -89t89 -219t-89 -219t-219 -89t-219 89t-89 219z" />
<glyph unicode="&#x2026;" horiz-adv-x="1488" d="M72 191.5q0 80.5 55 136t136 55.5t136.5 -55.5t55.5 -136t-55.5 -136t-136.5 -55.5t-136 55.5t-55 136zM553 191.5q0 80.5 55.5 136t136 55.5t136 -55.5t55.5 -136t-55.5 -136t-136 -55.5t-136 55.5t-55.5 136zM1034 191.5q0 80.5 55.5 136t136.5 55.5t136 -55.5t55 -136 t-55 -136t-136 -55.5t-136.5 55.5t-55.5 136z" />
<glyph unicode="&#x202f;" horiz-adv-x="406" />
<glyph unicode="&#x2039;" horiz-adv-x="690" d="M92 604l172 359h324l-178 -359l178 -358h-324z" />
<glyph unicode="&#x203a;" horiz-adv-x="690" d="M102 246l179 358l-179 359h324l172 -359l-172 -358h-324z" />
<glyph unicode="&#x205f;" horiz-adv-x="507" />
<glyph unicode="&#x20ac;" horiz-adv-x="1660" d="M41 451v215h127q-2 18 -2 57t2 57h-127v217h174q80 211 266.5 336t424 125t424 -127t259.5 -352h-418q-82 158 -272 158t-295 -140h299v-217h-379q-2 -18 -2 -57t2 -57h379v-215h-301q106 -141 297 -141.5t272 157.5h418q-74 -225 -260 -352t-423.5 -127t-425 125 t-267.5 338h-172z" />
<glyph unicode="&#x2122;" horiz-adv-x="1802" d="M61 1239v203h568v-203h-158l4 -516h-264l8 516h-158zM733 723v719h373l117 -385l131 385h346v-719h-232l-6 463l-168 -463h-170l-168 487v-487h-223z" />
<glyph unicode="&#x25fc;" horiz-adv-x="1146" d="M0 0v1147h1147v-1147h-1147z" />
</font>
</defs>
</svg>
